#TITLE:You're Better Off Dead !;
#SUBTITLE:;
#ARTIST:Children Of Bodom;
#TITLETRANSLIT:;
#SUBTITLETRANSLIT:;
#ARTISTTRANSLIT:;
#CREDIT:;
#BANNER:dead-ban.png;
#BACKGROUND:dead-bg.png;
#LYRICSPATH:;
#CDTITLE:Mus1cred.png;
#MUSIC:Children of Bodom - 01 - You're Better Off Dead!.mp3;
#OFFSET:0.000;
#SAMPLESTART:110.000;
#SAMPLELENGTH:12.000;
#SELECTABLE:YES;
#BPMS:0.000=192.000;
#STOPS:;
#BGCHANGES:;
// cache tags:
#FIRSTBEAT:1.500;
#LASTBEAT:402.500;
#SONGFILENAME:Songs/Mus1c/You're better off dead !/You're Better Off Dead !.sm;
#HASMUSIC:1;
#HASBANNER:1;
#MUSICLENGTH:126.171;
// end cache tags

//---------------dance-single - ----------------
#NOTES:
     dance-single:
     :
     Hard:
     11:
     1.000,1.000,1.000,0.373,0.852,840.000,183.000,47.000,0.000,2.000:
0000
0000
0000
0000
0000
0000
1000
0100
1000
0001
0010
0100
1000
0100
0010
0001
,
1000
0100
1000
0001
0010
0100
0010
0001
1000
0100
0010
0001
0100
0010
0001
1000
,
0100
0010
0001
0100
0010
0100
0001
0100
1000
0100
0001
1000
0100
0001
1000
0100
,
0010
0001
0010
0100
1000
0001
0010
0001
1000
0010
0100
0001
1000
0100
1000
0001
,
0010
0100
0010
0001
1000
0010
0001
0100
0010
0001
0010
0100
0001
0010
0100
1000
,
0010
0001
0010
1000
0100
0010
0100
1000
0010
0001
0100
0010
1000
0001
0100
0001
,
0010
0100
1000
0100
0010
0001
1000
0100
1000
0010
0100
1000
0100
0010
1000
0200
,
0000
0000
0000
0000
,
0001
0000
0001
0300
0000
0000
0010
0000
0100
0000
0001
0000
1000
0000
0010
0000
,
0001
0100
0001
0100
1000
0001
0100
0001
,
0100
1010
0100
0010
1000
0010
0100
0010
,
0001
0000
0010
0000
0100
0000
0010
1000
0010
1000
0010
1000
0010
1000
0010
1000
,
0010
1000
0010
1000
0010
0000
0100
0000
0001
0000
0100
0000
0001
0000
1000
0000
,
0001
0010
1000
0010
0001
0100
0010
1000
,
0010
0101
1000
0001
1000
0010
0100
1000
,
0001
0100
0001
1100
1010
0110
1001
0101
,
1100
0011
0110
1001
0100
0001
0010
1000
,
0100
0001
0100
0010
1000
0100
0001
0010
,
0100
0011
1000
0100
0001
0100
1000
0001
,
0100
0000
0001
0000
0010
0000
1000
0100
1000
0100
1000
0100
1000
0100
1000
0100
,
1000
0100
1000
0000
0100
0000
0001
0000
0010
0000
0001
0000
0100
0000
1000
0000
,
0001
0100
0001
0100
1000
0001
0100
0010
,
0001
1100
0010
0001
0100
0001
1000
0100
,
0001
0010
1000
0100
0001
0010
1000
0220
,
0000
2332
0000
3003
0100
0010
1000
0001
,
0100
0001
0010
1000
0001
0010
0001
0100
,
0010
1100
0101
1001
0000
0110
0110
1000
,
0100
0001
0010
0100
1000
0110
0011
0101
,
1010
0000
1001
0000
0101
0000
0000
0000
0022
0000
0000
0033
0000
0000
2002
0000
,
0000
3003
2010
0000
0100
0010
0100
0010
,
3001
0100
0001
1000
0010
0100
0001
1000
,
0100
0010
1000
0100
0001
0100
0010
1000
,
0110
0000
0110
0000
0011
0110
1001
1010
,
0011
1001
1100
1010
0011
1100
0011
1001
,
0101
0011
2200
3300
1001
0110
1100
1010
,
0110
0000
1010
0000
0101
0000
0001
0010
0100
1000
0001
0010
0100
1000
0001
0010
,
0100
1000
0001
0010
0100
1000
0000
0000
1001
0000
0101
0000
1010
0000
0011
0000
,
0110
1100
1001
0101
1100
0101
1001
0110
,
0101
0011
2020
3030
1001
1100
0101
0110
,
1001
0000
1010
0000
0011
0000
0100
0001
0100
0001
0100
0000
0010
0000
0100
0000
,
0001
1000
0001
0100
0011
1010
2100
0000
,
3010
0001
0020
0000
0130
0001
2000
0000
,
0000
0000
3101
0101
1000
0001
1000
0010
,
0100
0001
0010
0100
1000
0010
1000
0100
,
0001
1000
0100
1000
0101
0110
1020
0000
,
0130
1000
0002
0000
1003
0001
0200
0000
,
0000
0000
0300
0000
0100
0001
1000
0100
,
0001
0000
1000
0000
0100
0000
1000
0100
0010
0001
1000
0100
0010
0001
1000
0100
,
0010
0001
1000
0100
0010
0001
0000
1000
0000
0010
0000
0001
0000
0020
0000
0000
,
0000
1030
0000
0100
0000
0002
0000
0003
0000
0010
0000
0001
0000
0100
0000
0000
,
0000
1000
0000
0001
0000
0000
0000
0000
1000
0000
0001
0000
0100
0000
0001
0000
,
1000
0100
1000
0001
0100
1000
0001
0100
,
0001
0000
1000
0000
0100
0000
0000
1010
0000
0010
0000
0010
0000
0200
0000
0000
,
0000
0301
0000
1000
0000
0002
0000
0000
0003
0100
0000
1000
0000
0020
0000
0000
,
0000
1030
0000
0100
0000
0000
0010
0000
0001
0000
0100
0000
0001
0000
1000
0000
,
0100
0000
0010
0000
1000
0000
0001
0000
0010
0100
0010
0100
0010
0100
0010
0000
,
1001
0000
1001
0000
1001
0000
0000
0020
,
0000
0000
0000
0000
0000
0000
0000
2030
0000
0000
0000
0000
0000
0000
3002
0000
,
0000
0000
0000
0000
1003
0100
0010
0100
0010
0001
0010
0100
0010
0100
1000
0100
,
0010
0100
0010
0001
0010
0100
0010
0100
1000
0100
0010
0100
0010
0001
0010
0100
,
0010
0100
1000
0100
0010
0100
0010
0001
0110
0000
0000
0000
0000
0000
0000
0000
,
2000
0000
0000
0000
0000
0000
0000
3020
0000
0000
0000
0000
0000
0000
0000
0230
,
0000
0000
0000
0000
0000
0000
0000
0302
0000
0000
1003
0100
0010
0001
0010
0001
,
0010
0100
1000
0100
1000
0100
0010
0001
0010
0001
0010
0100
1000
0100
1000
0100
,
0010
0001
0010
0001
0010
0100
1000
0100
1010
0000
0000
0000
0000
0000
0000
0002
,
0000
0000
0000
0000
0000
0000
0000
0203
0000
0000
0000
0000
0000
0000
0000
0320
,
0000
0000
0000
0000
0000
0000
0000
1030
0001
1000
0010
1000
0100
1000
0001
1000
,
0010
1000
0001
1000
0100
1000
0001
1000
0010
1000
0100
1000
0001
1000
0010
1000
,
0001
1000
0100
1000
0010
1000
0001
0110
0000
0000
0000
0000
0000
0000
0000
0002
,
0000
0000
0000
0000
0000
0000
0000
0023
0000
0000
0000
0000
0000
0000
2030
0000
,
0000
0000
0000
0000
0000
0000
3200
0000
0000
0301
1000
0001
0100
0001
1000
0001
,
0100
0001
1000
0001
0100
0001
0100
0001
1000
0001
0010
0001
1000
0001
0100
0001
,
0000
0001
0100
0001
1000
0001
0010
1100
0000
0000
0000
0000
0000
2020
0000
0000
,
0000
0000
0000
0000
,
3000
1000
1000
1000
1000
0000
0100
0100
,
0000
0000
0000
0000
0030
0000
0000
1000
0100
0010
0001
1000
0100
0010
0001
1000
,
0100
0010
0001
1000
0100
0010
0001
0000
1100
0000
0000
0000
0000
0101
0000
0000
,
0000
0000
0000
2001
0000
0000
0000
0000
0000
0000
0000
3002
0000
0000
0000
0000
,
0000
0000
0000
0000
0000
0003
0100
1000
0100
1000
0100
1000
0100
1000
0100
1000
,
0100
0010
0001
0010
0100
1000
0000
0000
0011
0000
0000
0011
0000
0000
0000
0000
,
1001
0000
0110
0000
1010
1000
1000
1000
,
1000
1000
1000
1000
1000
1000
1000
1000
,
1000
1000
1000
1000
1000
1000
1000
1000
,
1000
1000
1000
1000
1000
1000
1000
1000
,
1000
1000
1000
1000
0110
0110
0110
0110
,
0110
0110
0110
0110
0110
0110
0110
0110
,
0110
0110
0110
0110
0110
0110
0110
0110
,
0110
0110
0110
0110
0110
0110
0110
0110
,
0110
0110
0110
0110
1001
0110
0110
0110
,
0110
0110
0110
1001
1001
0110
1001
1001
,
0110
1001
1001
0110
0011
0110
0110
0110
,
0110
0110
0110
1010
1010
0110
0101
0101
,
0110
1100
1100
0000
2020
0000
3030
0100
,
0001
0010
1000
0110
0110
0001
1010
1010
,
0100
0011
0011
0100
0001
0010
1000
0100
,
0001
0010
0100
1010
1010
0100
1001
1001
,
0100
0101
0101
0010
1000
0001
0100
0010
,
1000
0100
0001
1100
1100
0010
0011
0011
,
0100
0110
0110
1000
0001
0100
0010
1000
,
0001
0000
0000
0000
0100
0000
0000
0000
0010
0000
0000
0000
0010
0000
0000
1000
0000
0000
0000
0001
0000
0000
0000
0100
0000
0000
0000
0010
0000
0000
0000
1000
,
0000
0000
0000
0001
0000
0000
0000
0100
0000
0000
0000
0001
0000
0000
0000
0000
2002
0000
0000
0000
3003
0000
0000
0000
0000
0000
0000
0000
0000
0000
0000
0000
;
